MejorTorrent
Inicio   -   Principal   -   Ayuda   -   Últimos Torrents

Torrents
Documentales 115
Juegos 712
Musica 1129
Peliculas 2285
Peliculas HD 1451
Series 10313
  Episodios17292
Series HD 9268
Variados 238

Información
Esta web no contiene ningún tipo de fichero almacenado.

Todos los archivos se comparten mediante el BitTorrent, un programa P2P de intercambio entre usuarios.



Ciara
Descarga la última versión de uTorrent y baja a la máxima velocidad:

Ciara

Descargar Ciara Torrent


separador Género:  Variados

Total Descargas:  62



separador Torrent:      
        Tamaño:  45,48 MB

separador

Descripción:

General Complete name : Ciara – Sorry.mp4 Format : MPEG-4 File size :

41.5 MiB Duration : 4mn 41s Overall bit rate mode : Variable Overall bit

rate : 1 238 Kbps

Video ID : 1 Format : AVC Format/Info : Advanced Video Codec Codec ID :

avc1 Codec ID/Info : Advanced Video Coding Duration : 4mn 41s Bit rate

mode : Variable Bit rate : 1 108 Kbps Maximum bit rate : 50.0 Mbps Width

: 1 920 pixels Height : 772 pixels Display aspect ratio : 2.487 Frame rate

mode : Variable Frame rate : 23.976 fps Stream size : 37.1 MiB (89%)

Audio
ID : 2

Format : AAC

Format/Info : Advanced Audio Codec

Format profile : LC

Codec ID : 40

Duration : 4mn 41s

Bit rate mode : Variable

Bit rate : 125 Kbps

Maximum bit rate : 211 Kbps

Channel(s) : 2 channels

Channel positions : Front: L R

Sampling rate : 48.0 KHz

Stream size : 4.18 MiB (10%)



Posts Relacionados




Volver al índice de Variados









21:10:38
computer


DMCA.com Protection Status